请选择 进入手机版 | 继续访问电脑版

中画网

 找回密码
 中文注册

QQ登录

只需一步,快速开始

查看: 112|回复: 12

[人声无损] 【呼吸音乐】南美部落音乐家-Sacred Earth-Divine Devotion (2003) [FLAC]--贴赠轻音

[复制链接]

该用户从未签到

发表于 2019-9-7 16:07:24 | 显示全部楼层 |阅读模式
本帖最后由 深呼吸 于 2019-9-7 18:56 编辑














游客,如果您要查看本帖隐藏内容请回复



本帖子中包含更多资源

您需要 登录 才可以下载或查看,没有帐号?中文注册

x

评分

参与人数 4铜板 +160 收起 理由
黔中一叟 + 30 味道真棒!听你千遍不厌倦!
落雨听禅 + 50 唯美的制作!我醉了!
布衣人家 + 30 唯美的制作!我醉了!
幽园馨兰 + 50 唯美的制作!我醉了!

查看全部评分

该用户从未签到

 楼主| 发表于 2019-9-7 16:08:19 | 显示全部楼层
本帖最后由 深呼吸 于 2019-9-8 08:58 编辑

Exact Audio Copy V1.0 beta 3 from 29. August 2011
EAC extraction logfile from 23. May 2013, 18:49
Sacred Earth / Divine Devotion
Used drive  : HL-DT-STBDDVDRW GGC-H20L   Adapter: 0  ID: 2
Read mode               : Secure
Utilize accurate stream : Yes
Defeat audio cache      : Yes
Make use of C2 pointers : No
Read offset correction                      : 667
Overread into Lead-In and Lead-Out          : No
Fill up missing offset samples with silence : Yes
Delete leading and trailing silent blocks   : No
Null samples used in CRC calculations       : Yes
Used interface                              : Native Win32 interface for Win NT & 2000
Gap handling                                : Appended to previous track
Used output format              : User Defined Encoder
Selected bitrate                : 896 kBit/s
Quality                         : High
Add ID3 tag                     : No
Command line compressor         : C:\Program Files (x86)\Exact Audio Copy\FLAC\FLAC.EXE
Additional command line options : -6 -V -T "ARTIST=%artist%" -T "TITLE=%title%" -T "ALBUM=%albumtitle%" -T "DATE=%year%" -T "TRACKNUMBER=%tracknr%" -T "GENRE=%genre%" -T "COMMENT=%comment%" -T "BAND=%albuminterpret%" -T "ALBUMARTIST=%albuminterpret%" -T "COMPOSER=%composer%" %haslyrics%--tag-from-file=LYRICS="%lyricsfile%"%haslyrics% -T "DISCNUMBER=%cdnumber%" -T "TOTALDISCS=%totalcds%" -T "TOTALTRACKS=%numtracks%" %hascover%--picture="%coverfile%"%hascover% %source% -o %dest%

TOC of the extracted CD
     Track |   Start  |  Length  | Start sector | End sector
    ---------------------------------------------------------
        1  |  0:00.00 |  7:04.36 |         0    |    31835   
        2  |  7:04.36 |  9:36.55 |     31836    |    75090   
        3  | 16:41.16 |  8:49.30 |     75091    |   114795   
        4  | 25:30.46 |  7:16.29 |    114796    |   147524   
        5  | 32:47.00 |  1:42.13 |    147525    |   155187   
        6  | 34:29.13 |  5:44.39 |    155188    |   181026   
        7  | 40:13.52 |  6:08.74 |    181027    |   208700   
        8  | 46:22.51 |  5:23.57 |    208701    |   232982   
        9  | 51:46.33 |  4:26.11 |    232983    |   252943   

Track  1
     Filename D:\Up\Sacred Earth - Divine Devotion\Sacred Earth\Divine Devotion\01 - Kyaponma.wav
     Pre-gap length  0:00:02.00
     Peak level 100.0 %
     Extraction speed 4.9 X
     Track quality 100.0 %
     Test CRC 65C88755
     Copy CRC 65C88755
     Track not present in AccurateRip database
     Copy OK
Track  2
     Filename D:\Up\Sacred Earth - Divine Devotion\Sacred Earth\Divine Devotion\02 - Acsension.wav
     Pre-gap length  0:00:02.00
     Peak level 100.0 %
     Extraction speed 6.1 X
     Track quality 100.0 %
     Test CRC 0D294F6F
     Copy CRC 0D294F6F
     Track not present in AccurateRip database
     Copy OK
Track  3
     Filename D:\Up\Sacred Earth - Divine Devotion\Sacred Earth\Divine Devotion\03 - Dancing Shiva.wav
     Pre-gap length  0:00:02.00
     Peak level 100.0 %
     Extraction speed 7.0 X
     Track quality 100.0 %
     Test CRC 91EDB9CB
     Copy CRC 91EDB9CB
     Track not present in AccurateRip database
     Copy OK
Track  4
     Filename D:\Up\Sacred Earth - Divine Devotion\Sacred Earth\Divine Devotion\04 - Govinda Hari.wav
     Pre-gap length  0:00:02.00
     Peak level 100.0 %
     Extraction speed 7.6 X
     Track quality 100.0 %
     Test CRC 6FD78608
     Copy CRC 6FD78608
     Track not present in AccurateRip database
     Copy OK
Track  5
     Filename D:\Up\Sacred Earth - Divine Devotion\Sacred Earth\Divine Devotion\05 - The Offereing.wav
     Pre-gap length  0:00:02.00
     Peak level 43.3 %
     Extraction speed 5.9 X
     Track quality 100.0 %
     Test CRC 0133A09D
     Copy CRC 0133A09D
     Track not present in AccurateRip database
     Copy OK
Track  6
     Filename D:\Up\Sacred Earth - Divine Devotion\Sacred Earth\Divine Devotion\06 - Shine.wav
     Pre-gap length  0:00:02.00
     Peak level 99.9 %
     Extraction speed 8.0 X
     Track quality 100.0 %
     Test CRC E6EED05A
     Copy CRC E6EED05A
     Track not present in AccurateRip database
     Copy OK
Track  7
     Filename D:\Up\Sacred Earth - Divine Devotion\Sacred Earth\Divine Devotion\07 - Song For Peace.wav
     Pre-gap length  0:00:02.00
     Peak level 100.0 %
     Extraction speed 8.6 X
     Track quality 100.0 %
     Test CRC 4EA0FF3D
     Copy CRC 4EA0FF3D
     Track not present in AccurateRip database
     Copy OK
Track  8
     Filename D:\Up\Sacred Earth - Divine Devotion\Sacred Earth\Divine Devotion\08 - Raga With Trees.wav
     Pre-gap length  0:00:02.00
     Peak level 100.0 %
     Extraction speed 7.0 X
     Track quality 100.0 %
     Test CRC 2C615F3F
     Copy CRC 2C615F3F
     Track not present in AccurateRip database
     Copy OK
Track  9
     Filename D:\Up\Sacred Earth - Divine Devotion\Sacred Earth\Divine Devotion\09 - Sacred Ground.wav
     Pre-gap length  0:00:02.00
     Peak level 100.0 %
     Extraction speed 5.6 X
     Track quality 100.0 %
     Test CRC 0B8C63AA
     Copy CRC 0B8C63AA
     Track not present in AccurateRip database
     Copy OK

None of the tracks are present in the AccurateRip database
No errors occurred
End of status report
==== Log checksum E5C3BC76B6CD72A9A1D9BF5359C3E9493142FCE4702F46D259EBE7AA823DC762 ====


回复 支持 反对

使用道具 举报

该用户从未签到

 楼主| 发表于 2019-9-7 16:17:01 | 显示全部楼层
指尖轻点,文字染香;友谊无声, 心中珍藏;一路温暖,珍惜永远,呼吸借简单音乐贴祝福轻音才女秋日安好 幸福久久!
回复 支持 反对

使用道具 举报

签到天数: 524 天

[LV.9]以坛为家II

发表于 2019-9-7 16:49:11 | 显示全部楼层
欣赏佳作。为你点赞。
回复 支持 反对

使用道具 举报

签到天数: 305 天

[LV.8]以坛为家I

发表于 2019-9-7 19:18:54 | 显示全部楼层
问好呼吸宝贝,欣赏你的精彩制作
回复 支持 反对

使用道具 举报

签到天数: 305 天

[LV.8]以坛为家I

发表于 2019-9-7 19:25:46 | 显示全部楼层
画面制作精彩,歌曲好听,音质棒棒哒,为宝贝点赞!
回复 支持 反对

使用道具 举报

签到天数: 305 天

[LV.8]以坛为家I

发表于 2019-9-7 19:25:53 | 显示全部楼层
一杯香茗,一缕墨香,一曲悠扬,一幅画卷,一份祝福:遥祝安好!感谢精彩分享!
回复 支持 反对

使用道具 举报

签到天数: 165 天

[LV.7]常住居民III

发表于 2019-9-7 19:42:35 | 显示全部楼层
老师晚上好!欣赏您的精彩佳作,为您点赞,遥祝安康!
回复 支持 反对

使用道具 举报

签到天数: 1 天

[LV.1]初来乍到

发表于 2019-9-7 21:37:30 | 显示全部楼层
问好,欣赏你的精美制作
回复 支持 反对

使用道具 举报

签到天数: 1 天

[LV.1]初来乍到

发表于 2019-9-7 21:37:36 | 显示全部楼层
一杯茗茶,一份牵挂,几片枫叶,几束秋光,一同装进祝福的礼包,遥祝秋安!感谢您的精彩分享!
回复 支持 反对

使用道具 举报

您需要登录后才可以回帖 登录 | 中文注册

本版积分规则

网站地图|小黑屋|Archiver|中画网 ( 蜀ICP备11021737号-2 )

GMT+8, 2019-9-23 22:00 , Processed in 0.218750 second(s), 18 queries , Gzip On.

上网要文明 发言要理性 西部数码提供云服务器 音画管理   合作联系

Powered by Discuz! © 2008-2018 YinHuaBBS.CN

快速回复 返回顶部 返回列表